[BT]寂静的地球.The.Quiet.Earth.1985.REMASTERED.1080p.BluRay.X264-AMIABLE.7.94 GB

[复制链接]
ces 发表于 2018-4-23 12:24:20 | 显示全部楼层 |阅读模式 打印 上一主题 下一主题
 

马上注册,结交更多好友,享用更多功能,让你轻松玩转社区。

您需要 登录 才可以下载或查看,没有帐号?注册会员

x
259295ef8dc0b5a2c3faa0ea2a95369b.jpg

导演: 杰夫·墨菲
编剧: Craig Harrison / Bill Baer / 萨姆·皮尔斯伯里 / 布鲁诺·劳伦斯
主演: 布鲁诺·劳伦斯 / Alison Routledge / 佩特·史密斯 / Anzac Wallace / Norman Fletcher / Tom Hyde
类型: 剧情 / 科幻 / 悬疑
制片国家/地区: 新西兰
语言: 英语
上映日期: 1985-09-08
片长: 91分钟
IMDb链接: tt0089869

寂静的地球的剧情简介 · · · · · ·
  一个男人醒来发现世界上只剩下他一个人,于是到处寻找其他的幸存者,弄清到底发生了什么事。他怀疑自己卷入了一个征服的研究项目,而这个项目与其他人失踪有关。最后他终于找到几个人,当他们开始信任彼此时,设法要知道自己被遗留在这个世界上的原因。

80412992652567702750_thumb.png.jpg

55933225369881587525_thumb.png.jpg

Video
ID                                       : 1
Format                                   : AVC
Format/Info                              : Advanced Video Codec
Format profile                           : High@L4.1
Format settings, CABAC                   : Yes
Format settings, ReFrames                : 4 frames
Codec ID                                 : V_MPEG4/ISO/AVC
Duration                                 : 1 h 31 min
Bit rate                                 : 11.0 Mb/s
Width                                    : 1 920 pixels
Height                                   : 1 040 pixels
Display aspect ratio                     : 1.85:1
Frame rate mode                          : Constant
Frame rate                               : 23.976 (24000/1001) FPS
Color space                              : YUV
Chroma subsampling                       : 4:2:0
Bit depth                                : 8 bits
Scan type                                : Progressive
Bits/(Pixel*Frame)                       : 0.229
Stream size                              : 6.83 GiB (86%)
Writing library                          : x264 core 148 r2705 3f5ed56
Encoding settings                        : cabac=1 / ref=4 / deblock=1:-3:-3 / analyse=0x3:0x133 / me=umh / subme=10 / psy=1 / psy_rd=1.05:0.00 / mixed_ref=1 / me_range=32 / chroma_me=1 / trellis=2 / 8x8dct=1 / cqm=0 / deadzone=21,11 / fast_pskip=1 / chroma_qp_offset=-2 / threads=24 / lookahead_threads=4 / sliced_threads=0 / nr=0 / decimate=1 / interlaced=0 / bluray_compat=0 / constrained_intra=0 / bframes=8 / b_pyramid=2 / b_adapt=2 / b_bias=0 / direct=3 / weightb=1 / open_gop=0 / weightp=2 / keyint=240 / keyint_min=24 / scenecut=40 / intra_refresh=0 / rc_lookahead=60 / rc=2pass / mbtree=1 / bitrate=10982 / ratetol=1.0 / qcomp=0.60 / qpmin=0 / qpmax=69 / qpstep=4 / cplxblur=20.0 / qblur=0.5 / ip_ratio=1.30 / aq=3:0.75
Default                                  : Yes
Forced                                   : No
Statistics Tags Issue                    : no_variable_data 1970-01-01 00:00:00 / no_variable_data 2010-02-22 21:41:29
FromStats_BitRate                        : 10981240
FromStats_Duration                       : 01:31:02.666000000
FromStats_FrameCount                     : 130973
FromStats_StreamSize                     : 7498356434

Audio
ID                                       : 2
Format                                   : DTS
Format/Info                              : Digital Theater Systems
Mode                                     : 16
Format settings, Endianness              : Big
Codec ID                                 : A_DTS
Duration                                 : 1 h 31 min
Bit rate mode                            : Constant
Bit rate                                 : 1 509 kb/s
Channel(s)                               : 6 channels
Channel positions                        : Front: L C R, Side: L R, LFE
Sampling rate                            : 48.0 kHz
Frame rate                               : 93.750 FPS (512 spf)
Bit depth                                : 24 bits
Compression mode                         : Lossy
Stream size                              : 983 MiB (12%)
Language                                 : English
Default                                  : Yes
Forced                                   : No
Statistics Tags Issue                    : no_variable_data 1970-01-01 00:00:00 / no_variable_data 2010-02-22 21:41:29
FromStats_BitRate                        : 1509000
FromStats_Duration                       : 01:31:02.720000000
FromStats_FrameCount                     : 512130
FromStats_StreamSize                     : 1030405560

Menu
00:00:00.000                             : en:00:00:00.000
00:07:51.221                             : en:00:07:51.221
00:13:11.708                             : en:00:13:11.708
00:21:15.858                             : en:00:21:15.858
00:30:01.383                             : en:00:30:01.383
00:37:28.246                             : en:00:37:28.246
00:44:42.138                             : en:00:44:42.138
00:52:35.986                             : en:00:52:35.986
00:58:40.517                             : en:00:58:40.517
01:07:18.117                             : en:01:07:18.117
01:14:21.957                             : en:01:14:21.957
01:28:21.588                             : en:01:28:21.588

[w3dm.cn]The.Quiet.Earth.1985.REMASTERED.1080p.BluRay.X264.torrent (79.99 KB, 下载次数: 1, 售价: 2 枚金币)
回复

使用道具 举报

 

精彩评论2

正序浏览
zrb767 发表于 2018-4-24 08:22:43 | 显示全部楼层
 
谢谢楼主分享
回复 支持 反对

使用道具 举报

 
kangkang321 发表于 2018-4-28 12:11:11 | 显示全部楼层
 
老电影了在这里找到了
回复 支持 反对

使用道具 举报

 
您需要登录后才可以回帖 登录 | 注册会员

本版积分规则

1关注

14粉丝

1073帖子

  • 版块推荐
  • 百宝箱
会员达人更多+
广告位

信息推荐

更多+

最新信息

更多+

关注与支持

微 信

支付宝

本站部分资源收集于网络,若侵犯了您的合法权益,请联系我们删除!

邮箱:1071919198@qq.com

Copyright©2010-2020 世界3D模特网版权所有