X 放射线.Them.1954.1080p.BluRay.X264-AMIABLE.8.74 GB

[复制链接]
ces 发表于 2018-4-23 12:50:52 | 显示全部楼层 |阅读模式 打印 上一主题 下一主题
 

马上注册,结交更多好友,享用更多功能,让你轻松玩转社区。

您需要 登录 才可以下载或查看,没有帐号?注册会员

x
82700fcc64e42b47500d303931de8406.jpg

导演: 戈登·道格拉斯
编剧: 乔治·沃辛·耶茨 / 罗素·S·休斯 / 特德·希尔德曼
主演: 詹姆斯·惠特摩 / 埃德蒙·戈温 / 詹姆斯·阿尼斯 / 琼·韦尔登
类型: 科幻 / 恐怖
制片国家/地区: 美国
语言: 英语
上映日期: 1954-06-19
片长: 94 分钟
IMDb链接: tt0047573

X 放射线的剧情简介 · · · · · ·
  有个惊吓过度的小女孩在沙漠游走,唯一吐出的只有一个字:怪物!任何50年代恐怖片迷都会马上告诉你,她所指的”怪物”就是巨蚁,那是在当地核子试爆后的副产品。这些巨蚁非常有组织,嗜肉且体型巨大,约有8到20呎,它们群聚在洛杉矶的下水道系统,彷若一个巨大的蚂蚁园区,准备好要接管这个世界。要和这些怪物对抗的人类精英是新墨西哥警署探员詹姆斯惠特摩,联邦调查局代表詹姆斯亚尼斯,和一对由埃德蒙关恩和乔安妮威尔登所饰的父女档昆虫学家。

X 放射线的获奖情况
第27届奥斯卡金像奖 最佳特效(提名)

95685593882048108167_thumb.png.jpg

33807002189801218319_thumb.png.jpg

85720490609150949383_thumb.png.jpg

Video
ID                                       : 1
Format                                   : AVC
Format/Info                              : Advanced Video Codec
Format profile                           : High@L4.1
Format settings, CABAC                   : Yes
Format settings, ReFrames                : 4 frames
Codec ID                                 : V_MPEG4/ISO/AVC
Duration                                 : 1 h 32 min
Bit rate                                 : 12.8 Mb/s
Width                                    : 1 920 pixels
Height                                   : 1 080 pixels
Display aspect ratio                     : 16:9
Frame rate mode                          : Constant
Frame rate                               : 23.976 (24000/1001) FPS
Color space                              : YUV
Chroma subsampling                       : 4:2:0
Bit depth                                : 8 bits
Scan type                                : Progressive
Bits/(Pixel*Frame)                       : 0.257
Stream size                              : 8.07 GiB (92%)
Writing library                          : x264 core 148 r2638 7599210
Encoding settings                        : cabac=1 / ref=4 / deblock=1:-3:-3 / analyse=0x3:0x113 / me=umh / subme=8 / psy=1 / psy_rd=1.10:0.00 / mixed_ref=1 / me_range=16 / chroma_me=1 / trellis=1 / 8x8dct=1 / cqm=0 / deadzone=21,11 / fast_pskip=1 / chroma_qp_offset=-2 / threads=24 / lookahead_threads=4 / sliced_threads=0 / nr=0 / decimate=1 / interlaced=0 / bluray_compat=0 / constrained_intra=0 / bframes=3 / b_pyramid=2 / b_adapt=2 / b_bias=0 / direct=3 / weightb=1 / open_gop=0 / weightp=2 / keyint=240 / keyint_min=24 / scenecut=40 / intra_refresh=0 / rc_lookahead=50 / rc=2pass / mbtree=1 / bitrate=12760 / ratetol=1.0 / qcomp=0.60 / qpmin=0 / qpmax=69 / qpstep=4 / cplxblur=20.0 / qblur=0.5 / ip_ratio=1.40 / aq=3:1.00
Language                                 : English
Default                                  : Yes
Forced                                   : No

Audio
ID                                       : 2
Format                                   : DTS
Format/Info                              : Digital Theater Systems
Mode                                     : 16
Format settings, Endianness              : Big
Codec ID                                 : A_DTS
Duration                                 : 1 h 32 min
Bit rate mode                            : Constant
Bit rate                                 : 768 kb/s
Channel(s)                               : 6 channels
Channel(s)_Original                      : 1 channel
Channel positions                        : Front: C
Sampling rate                            : 48.0 kHz
Frame rate                               : 93.750 FPS (512 spf)
Bit depth                                : 24 bits
Compression mode                         : Lossy
Stream size                              : 508 MiB (6%)
Language                                 : English
Default                                  : Yes
Forced                                   : No

Text #1
ID                                       : 3
Format                                   : UTF-8
Codec ID                                 : S_TEXT/UTF8
Codec ID/Info                            : UTF-8 Plain Text
Language                                 : English
Default                                  : No
Forced                                   : No

Text #2
ID                                       : 4
Format                                   : UTF-8
Codec ID                                 : S_TEXT/UTF8
Codec ID/Info                            : UTF-8 Plain Text
Title                                    : SDH
Language                                 : English
Default                                  : No
Forced                                   : No

Menu
00:00:00.000                             : en:00:00:00.000
00:01:22.082                             : en:00:01:22.082
00:04:11.918                             : en:00:04:11.918
00:08:36.015                             : en:00:08:36.015
00:10:18.868                             : en:00:10:18.868
00:13:44.365                             : en:00:13:44.365
00:16:48.174                             : en:00:16:48.174
00:19:01.349                             : en:00:19:01.349
00:22:52.371                             : en:00:22:52.371
00:24:29.134                             : en:00:24:29.134
00:27:29.273                             : en:00:27:29.273
00:31:19.586                             : en:00:31:19.586
00:34:56.428                             : en:00:34:56.428
00:37:45.597                             : en:00:37:45.597
00:42:17.702                             : en:00:42:17.702
00:46:13.813                             : en:00:46:13.813
00:48:04.507                             : en:00:48:04.507
00:53:35.838                             : en:00:53:35.838
00:58:30.632                             : en:00:58:30.632
01:01:38.403                             : en:01:01:38.403
01:04:26.988                             : en:01:04:26.988
01:06:40.788                             : en:01:06:40.788
01:08:25.601                             : en:01:08:25.601
01:10:36.441                             : en:01:10:36.441
01:13:44.253                             : en:01:13:44.253
01:16:50.147                             : en:01:16:50.147
01:21:17.998                             : en:01:21:17.998
01:25:48.894                             : en:01:25:48.894
01:27:54.978                             : en:01:27:54.978
01:30:44.939                             : en:01:30:44.939

[w3dm.cn]Them.1954.1080p.BluRay.X264.torrent (87.95 KB, 下载次数: 2, 售价: 2 枚金币)
回复

使用道具 举报

 

精彩评论4

正序浏览
雾霾很大 发表于 2018-4-23 13:23:08 | 显示全部楼层
 
谢谢楼主
回复

使用道具 举报

 
zrb767 发表于 2018-4-24 08:22:08 | 显示全部楼层
 
谢谢楼主分享
回复 支持 反对

使用道具 举报

 
gorsy 发表于 2018-4-26 12:58:09 | 显示全部楼层
 
谢楼主分享
回复 支持 反对

使用道具 举报

 
yanker 发表于 2019-4-23 22:10:25 | 显示全部楼层
 
谢谢
回复

使用道具 举报

 
您需要登录后才可以回帖 登录 | 注册会员

本版积分规则

1关注

14粉丝

1073帖子

  • 版块推荐
  • 百宝箱
会员达人更多+
广告位

信息推荐

更多+

最新信息

更多+

关注与支持

微 信

支付宝

本站部分资源收集于网络,若侵犯了您的合法权益,请联系我们删除!

邮箱:1071919198@qq.com

Copyright©2010-2020 世界3D模特网版权所有